Musica Electronica
Contactar

Norman Day aka. @dr1 DJ-Summernight Confessions

de Norman Day aka. @dr1 DJ

Descargar Mp3



¿te ha gustado? vótame!
Compartir con un amigo
Si deseas compartir esta sesión con un amigo/a pulsa aquí


Descripción
PERFORMER "Norman Day aka. @dr1 DJ"
TITLE "Summernight Confessions"
FILE "Norman Day aka. @dr1 DJ-Summernight Confessions (13.09.08).mp3" MP3
TRACK 01 AUDIO
PERFORMER "Intro"
TITLE "Epos - Adagio espressivo (Magic Island Mix)"
INDEX 01 00:00:00
TRACK 02 AUDIO
PERFORMER "Armin Van Buuren ft. Susana"
TITLE "If you should go (Inpetto vs. Duderstadt RmX)"
INDEX 01 04:22:00
TRACK 03 AUDIO
PERFORMER "Aly & Fila"
TITLE "Lost language (Akesson RmX)"
INDEX 01 10:11:00
TRACK 04 AUDIO
PERFORMER "Oceanlab"
TITLE "Sirens of the sea (Kyau vs. Albert Mix)"
INDEX 01 12:56:00
TRACK 05 AUDIO
PERFORMER "Apex"
TITLE "Virtuoso (Factoria Vocal Mix)"
INDEX 01 18:18:00
TRACK 06 AUDIO
PERFORMER "Armin Van Buuren ft. Sharon Den Adel"
TITLE "In & out of love (The Blizzard RmX)"
INDEX 01 22:38:00
TRACK 07 AUDIO
PERFORMER "Estigma & Angel Ace"
TITLE "The fallen (Eddle Sender RmX)"
INDEX 01 15:58:71
TRACK 08 AUDIO
PERFORMER "Ben Gold ft. Senadee"
TITLE "Say the words (Aly & Fila RmX)"
INDEX 01 27:06:00
TRACK 09 AUDIO
PERFORMER "Ilka"
TITLE "Northern lakes (Tenthu Sunset Mix)"
INDEX 01 31:37:01
TRACK 10 AUDIO
PERFORMER "Kiholm"
TITLE "Fragile (Daniel Kandi Emotional Mix)"
INDEX 01 37:12:00
TRACK 11 AUDIO
PERFORMER "Reality & Santerna ft. Tiff Lacey"
TITLE "On this day (Abbott & Chambers Vocal Mix)"
INDEX 01 40:25:00
TRACK 12 AUDIO
PERFORMER "Majera"
TITLE "Velvet sun (Original Mix)"
INDEX 01 47:02:00
TRACK 13 AUDIO
PERFORMER "Sunlounger ft. Zara"
TITLE "Crawling (DJ Shah RmX)"
INDEX 01 51:50:00
TRACK 14 AUDIO
PERFORMER "Airbase"
TITLE "Moorea (Original Mix)"
INDEX 01 57:22:00
TRACK 15 AUDIO
PERFORMER "Albert Vorne & Amex"
TITLE "Liberty town (Original Mix)"
INDEX 01 61:29:00
TRACK 16 AUDIO
PERFORMER "Rozza ft. Tiff Lacey"
TITLE "No more rain (Rozza vs. Kiholm Club Mix)"
INDEX 01 66:31:00

Comentarios

Escribir comentario
Sin comentarios

Enviar Comentario

Está totalmente prohibido los comentarios racistas, homófobos, machistas ... en general aquellos que falten al respeto.
Conectar a mi cuenta
Nombre de usuario
Clave

Si aun no estás registrado pulsa aquí

Iconos


Compartir en Myspace